Eighth Grade (2018) 1080p WEB-DL DD5 1 H264-FGT

Eighth Grade (2018) 1080p WEB-DL DD5 1 H264-FGT





http://www.imdb.com/title/tt7014006/

Format                      : Matroska
Format version              : Version 4 / Version 2
File size                   : 3.67 GiB
Duration                    : 1 h 33 min
Overall bit rate            : 5 596 kb/s
Movie name                  : Eighth.Grade.2018.1080p.WEB-DL.DD5.1.H264-FGT
Encoded date                : UTC 2018-09-25 05:40:57
Writing application         : mkvmerge v26.0.0 ('In The Game') 64-bit
Writing library             : libebml v1.3.6 + libmatroska v1.4.9
Cover                       : Yes
Attachments                 : small_cover.jpg / small_cover_land.jpg / cover.jpg / cover_land.jpg

Video
ID                          : 1
Format                      : AVC
Format/Info                 : Advanced Video Codec
Format profile              : [email protected]
Format settings, CABAC      : Yes
Format settings, RefFrames  : 4 frames
Codec ID                    : V_MPEG4/ISO/AVC
Duration                    : 1 h 33 min
Bit rate                    : 5 210 kb/s
Width                       : 1 920 pixels
Height                      : 1 030 pixels
Display aspect ratio        : 1.85:1
Frame rate mode             : Constant
Frame rate                  : 23.976 (23976/1000) FPS
Color space                 : YUV
Chroma subsampling          : 4:2:0
Bit depth                   : 8 bits
Scan type                   : Progressive
Bits/(Pixel*Frame)          : 0.110
Stream size                 : 3.42 GiB (93%)
Title                       : Eighth.Grade.2018.1080p.WEB-DL.DD5.1.H264-FGT
Language                    : English
Default                     : Yes
Forced                      : No
Color range                 : Limited
Color primaries             : BT.709
Transfer characteristics    : BT.709
Matrix coefficients         : BT.709

Audio
ID                          : 2
Format                      : AC-3
Format/Info                 : Audio Coding 3
Format settings, Endianness : Big
Codec ID                    : A_AC3
Duration                    : 1 h 33 min
Bit rate mode               : Constant
Bit rate                    : 384 kb/s
Channel(s)                  : 6 channels
Channel positions           : Front: L C R, Side: L R, LFE
Sampling rate               : 48.0 kHz
Frame rate                  : 31.250 FPS (1536 SPF)
Bit depth                   : 16 bits
Compression mode            : Lossy
Delay relative to video     : -42 ms
Stream size                 : 258 MiB (7%)
Title                       : Eighth.Grade.2018.1080p.WEB-DL.DD5.1.H264-FGT
Language                    : English
Service kind                : Complete Main
Default                     : Yes
Forced                      : No

Menu
00:00:00.000                : en:1
00:06:06.000                : en:2
00:12:36.000                : en:3
00:16:41.000                : en:4
00:23:09.000                : en:5
00:31:09.000                : en:6
00:36:56.000                : en:7
00:43:25.000                : en:8
00:50:00.000                : en:9
00:53:57.000                : en:10
01:01:44.000                : en:11
01:07:57.000                : en:12
01:13:23.000                : en:13
01:17:09.000                : en:14
01:24:33.000                : en:15
01:30:49.000                : en:16







SINGLE DIRECT FAST LINKS
http://www.heroupload.us/72dd7fb8ce9f4b42/Eighth.Grade.2018.1080p.WEB-DL.DD5.1.H264-FGT.mkv


http://filefloater.com/1KR1/Eighth.Grade.2018.1080p.WEB-DL.DD5.1.H264-FGT.mkv

1GB LINKS

http://www.heroupload.us/ab0000c2242a5091/Eighth.Grade.2018.1080p.WEB-DL.DD5.1.H264-FGT.part1.rar
http://www.heroupload.us/100e41c757e4b02c/Eighth.Grade.2018.1080p.WEB-DL.DD5.1.H264-FGT.part2.rar
http://www.heroupload.us/74c88f49fc734c73/Eighth.Grade.2018.1080p.WEB-DL.DD5.1.H264-FGT.part3.rar
http://www.heroupload.us/a8556c11f80e1ed7/Eighth.Grade.2018.1080p.WEB-DL.DD5.1.H264-FGT.part4.rar



http://filefloater.com/1KR2/Eighth.Grade.2018.1080p.WEB-DL.DD5.1.H264-FGT.part1.rar
http://filefloater.com/1KR3/Eighth.Grade.2018.1080p.WEB-DL.DD5.1.H264-FGT.part2.rar
http://filefloater.com/1KR4/Eighth.Grade.2018.1080p.WEB-DL.DD5.1.H264-FGT.part3.rar
http://filefloater.com/1KR5/Eighth.Grade.2018.1080p.WEB-DL.DD5.1.H264-FGT.part4.rar


Buy Premium From My Links & Support Me
шаблоны для dle 11.2