The Five-Year Engagement (2012) 720p Bluray x264 [Dual Audio][Hindi+English] - KMHD

The Five-Year Engagement (2012) 720p Bluray x264 [Dual Audio][Hindi+English] - KMHD





Format                      : Matroska
Format version              : Version 4 / Version 2
File size                   : 972 MiB
Duration                    : 2 h 11 min
Overall bit rate            : 1 036 kb/s
Encoded date                : UTC 2018-09-26 12:17:12
Writing application         : mkvmerge v26.0.0 ('In The Game') 64-bit
Writing library             : libebml v1.3.6 + libmatroska v1.4.9

Video
ID                          : 1
Format                      : AVC
Format/Info                 : Advanced Video Codec
Format profile              : High@L4
Format settings, CABAC      : Yes
Format settings, RefFrames  : 6 frames
Codec ID                    : V_MPEG4/ISO/AVC
Duration                    : 2 h 11 min
Bit rate                    : 809 kb/s
Width                       : 1 280 pixels
Height                      : 688 pixels
Display aspect ratio        : 1.85:1
Frame rate mode             : Constant
Frame rate                  : 23.976 (24000/1001) FPS
Color space                 : YUV
Chroma subsampling          : 4:2:0
Bit depth                   : 8 bits
Scan type                   : Progressive
Bits/(Pixel*Frame)          : 0.038
Stream size                 : 760 MiB (78%)
Writing library             : x264 core 125 r2200 999b753
Encoding settings           : cabac=1 / ref=6 / deblock=1:0:0 / analyse=0x3:0x113 / me=umh / subme=8 / psy=1 / psy_rd=1.00:0.15 / mixed_ref=1 / me_range=16 / chroma_me=1 / trellis=1 / 8x8dct=1 / cqm=0 / deadzone=21,11 / fast_pskip=1 / chroma_qp_offset=-3 / threads=12 / lookahead_threads=2 / sliced_threads=0 / nr=0 / decimate=1 / interlaced=0 / bluray_compat=0 / constrained_intra=0 / bframes=5 / b_pyramid=2 / b_adapt=2 / b_bias=0 / direct=3 / weightb=1 / open_gop=0 / weightp=2 / keyint=240 / keyint_min=23 / scenecut=40 / intra_refresh=0 / rc_lookahead=50 / rc=2pass / mbtree=1 / bitrate=809 / ratetol=1.0 / qcomp=0.60 / qpmin=10 / qpmax=51 / qpstep=4 / cplxblur=20.0 / qblur=0.5 / ip_ratio=1.40 / aq=1:1.00
Default                     : Yes
Forced                      : No

Audio #1
ID                          : 2
Format                      : AAC
Format/Info                 : Advanced Audio Codec
Format profile              : LC
Codec ID                    : A_AAC
Duration                    : 2 h 11 min
Bit rate                    : 130 kb/s
Channel(s)                  : 2 channels
Channel positions           : Front: L R
Sampling rate               : 48.0 kHz
Frame rate                  : 46.875 FPS (1024 SPF)
Compression mode            : Lossy
Delay relative to video     : -83 ms
Stream size                 : 122 MiB (13%)
Language                    : Hindi
Default                     : Yes
Forced                      : Yes

Audio #2
ID                          : 3
Format                      : AAC
Format/Info                 : Advanced Audio Codec
Format profile              : LC
Codec ID                    : A_AAC
Duration                    : 2 h 11 min
Bit rate                    : 94.0 kb/s
Channel(s)                  : 2 channels
Channel positions           : Front: L R
Sampling rate               : 44.1 kHz
Frame rate                  : 43.066 FPS (1024 SPF)
Compression mode            : Lossy
Delay relative to video     : -83 ms
Stream size                 : 88.3 MiB (9%)
Language                    : English
Default                     : No
Forced                      : No

Text
ID                          : 4
Format                      : UTF-8
Codec ID                    : S_TEXT/UTF8
Codec ID/Info               : UTF-8 Plain Text
Duration                    : 2 h 4 min
Bit rate                    : 84 b/s
Count of elements           : 2438
Stream size                 : 77.2 KiB (0%)
Language                    : English
Default                     : Yes
Forced                      : Yes





SINGLE DIRECT FAST LINKS

http://www.heroupload.us/1186cbc738123b9c/The.Five-Year.Engagement.2012.Hindi+English.Bluray.720p.Dual.Audio.x264-KMHD.mkv



http://filefloater.com/2AUi/The.Five-Year.Engagement.2012.Hindi+English.Bluray.720p.Dual.Audio.x264-KMHD.mkv



Buy Premium From My Links & Support Me
шаблоны для dle 11.2